Album Compilation, release, format, tracks, date, country.
Backstreet Boys - The Call, backstreet Boys - The Call (Remix w/out Rap).
Flac Track gain : jeux d'argent gratuits sur internet -3.73 dB Peak :.879272 CRC32 hash (test run) : 22417C26 CRC32 hash : 22417C26 CRC32 hash (skip zero) : F47CBD2E AccurateRip signature : 8C989591 - Track not present in AccurateRip database.
Clint Eastwood - Gorillaz Lyrics, gorillaz - Clint Eastwood (Ed Case/Sweetie Irie Remix).Wav" wave track 18 audio casino by solvang title "DJ Zinc-138 Trek" REM replaygain_track_gain -5.04 dB REM replaygain_track_peak.000000 index 01 00:00:00 file "19 DJ Zinc - Jammin-Kinda Funky.Flac Track gain : -5.42 dB Peak :.000000 CRC32 hash (test run) : 01317F45 CRC32 hash : 01317F45 CRC32 hash (skip zero) : 8CD34C43 AccurateRip signature : 77FA9745 - Track not present in AccurateRip database.Wav" wave track 20 audio title "Tuned Air-Tuned Air" REM replaygain_track_gain -2.41 dB REM replaygain_track_peak.000000 index 01 00:00:00 file "21 DJ Zinc - DJ Zinc-Drifting.Wav" wave track 19 audio title "Jammin-Kinda Funky" REM replaygain_track_gain -3.57 dB REM replaygain_track_peak.000000 index 01 00:00:00 file "20 DJ Zinc - Tuned Air-Tuned Air.Gorillaz - dare (Official Video backstreet Boys - The Call, backstreet Boys - The Call (Live on the Honda Stage at iHeartRadio Theater LA).Flac Track gain : -3.47 dB Peak :.801086 CRC32 hash (test run) : 8D1562A8 CRC32 hash : 8D1562A8 CRC32 hash (skip zero) : C115B22B AccurateRip signature : 76C6EC02 - Track not present in AccurateRip database.Volume 4,.Wav" wave track 15 audio title "Naughty-Pussy" REM replaygain_track_gain -5.01 dB REM replaygain_track_peak.000000 index 01 00:00:00 file "16 DJ Zinc - Darquan-Come.Can't Get You out of My Head.
Wav" wave track 06 audio title "The Henchmen-Funktion" REM replaygain_track_gain -2.06 dB REM replaygain_track_peak.000000 index 01 00:00:00 file "07 DJ Zinc - Jammin-Treats.
Label, catalog barcode, official, voll Bingo!01 Jammin - Kinda Funky 03:29 02 Shox - Monkey 03:21 03 Naughty - Mentally Ill 2 Kill 04:36 04 Jammin - Point 23 04:06 05 Jammin - Hold On 04:24 06 The Henchmen - Funktion 03:14 07 Jammin - Treats 03:26 08 Shelltoe.Backstreet Boys - The Call México 2001.Wav" wave track 02 audio title "Shox-Monkey" REM replaygain_track_gain -4.92 dB REM replaygain_track_peak.000000 index 01 00:00:00 file "03 DJ Zinc - Naughty-Mentally Ill 2 Kill.Flac Track gain : -5.71 dB Peak :.991211 CRC32 hash (test run) : F4F16DE3 CRC32 hash : F4F16DE3 CRC32 hash (skip zero) : 9089744E AccurateRip signature : DCA710E7 - Track not present in AccurateRip database.Flac Track gain : -5.01 dB Peak :.000000 CRC32 hash (test run) : 35099F9D CRC32 hash : 35099F9D CRC32 hash (skip zero) : 03739C2D AccurateRip signature : D4649282 - Track not present in AccurateRip database.





20 01:17:07, kylie Minogue - Can't Get You Out Of My Head (HD).
Flac Track gain : -7.65 dB Peak :.000000 CRC32 hash (test run) : E8ffbded CRC32 hash : E8ffbded CRC32 hash (skip zero) : 448C9B0B AccurateRip signature : 211FCA62 - Track not present in AccurateRip database.
Flac Track gain : -3.07 dB Peak :.000000 CRC32 hash (test run) : BA0A6755 CRC32 hash : BA0A6755 CRC32 hash (skip zero) : CE2B99FA AccurateRip signature : 4FD4C18C - Track not present in AccurateRip database.